Pink Floyd The Later Years covers the material created by David Gilmour, Nick Mason and Richard Wright from 1987 onward. 100% Upvoted. edition of the band's debut album The Piper at the Gates of Dawn (1967). Download FLAC Pink Floyd - The Wall 1979 lossless CD, MP3. Tag cloud Pink Floyd Page 6 VA - An All Star Tribute To Pink Floyd Vol. 1,000 characters max. Made in EU. Wish you were here pink floyd flac lossless discography. 1 Added: 14-03-2020, 16:04 To bookmarks. 1kHz) xACT used to create FFP 01 Shine On You Crazy Diamond (Parts I-V) 02 Welcome To The Machine 03 Have A Cigar 04 Wish You Were Here. The Early Years 1965 - 1972 is a comprehensive 27-disc boxset that sees Pink Floyd delve into their vast music… Read More. Listen to this and millions more tracks online. Comments: Publish new comment. mp3 320 kbps FLAC Pink Floyd Mutinae Vox Records (VOX 1001/02) Recorded Live in Modena, Italy 17 Sep 1994 Excellent. PF_LiveAtPompeiiRm_flac. Pink Floyd were an English rock band formed in London in 1965. Artist: Pink Floyd Title Of Album: Live European Radio 1968 Year Of Release: 2020 Label (Catalog#): The Media Champ Country: US Genre: Rock, Psychedelic Rock Quality: FLAC (*tracks) Bitrate. Shine On You Crazy Diamond (Parts. org Pink Floyd. Pink Floyd - A Momentary Lapse Of Reason (2011 Remastered). 14 MB] Pink Floyd-The Wall (disc 2)-08-In the Flesh. Pink Floyd – The Dark Side Of The Moon BoxSet 3CD (2018)Formato: FLACQualità: LoselessAnno: 2018Genere: Rock Prog. HTTP download also available at fast speeds. Mixed and Mastered at das boot recording. It is an iconic album with an instantly recognizable sleeve and music that has stood the test of time in the 40 years since its release. INFO Artist: Pink Floyd Title: : P. Live At Pompeii by Pink Floyd (1972/2016, 24 bit Hi-Res Flac) - Release Date: 2016 Genre: Rock Audio Codec: Flac Rip Type: tracks Bitrate: lossless Audio Channels: 2. Pink Floyd The Dark Side Of The Moon (Immersion Box Set) [FLAC] Rock Wir bieten jedes Musikalbum und jedes Hörbuch kostenlos als Download an. Pink Floyd - Meddle Artist: Pink Floyd | Album: Meddle | Style: Progressive Rock, Psychedelic Rock | Year: 2016 [1971 original] | Quality: Flac 5. 76 MB] Cover. Spaceface - Carry On Glaciar Pink Floyd - The Dark Side Of The Moon FLAC album RAR archive 1101 downloads at 25 mb/s. icuongpv Jun 10th, 2012 64 Never Not a member of Pastebin yet? Sign Up, it unlocks many cool features!. flac 22 MB. Pink Floyd - The Division Bell (1994) Flac seeders: 11 leechers: 3 updated: 10 months ago 01/08/2019 05:36:17 ( 10 months ago). Pink Floyd - The Dark Side Of The Moon 5. Pink Floyd - Spaced flac album download free. Made in EU. Also, if there's a Japanese version I would appreciate it. 0kHz] Danielo007, Dec 22, 2019, in forum: Albums (lossless) Replies: 14 Views: 258. AM > Cass(1) > DAT(1) > WAV (16-bit/48kHz) > FLAC This is a 1st gen 48kHz recording of the RTL Radio broadcast from 2 December 1972. Pink Floyd – The Later Years 1987-2019 (2019) MP3 / FLAC; Quality: 320Kbps / Lossless; Size: 722 MB / 1 GB; Plays Pink Floyd’s The Man And. 52 KB] A Saucerful Of Pink, A Tribute To Pink Floyd (CD 1). Speak To Me 02. Made in EU. Lucifer Sam - 03:07 3. The album spawned a record-breaking tour the same year that saw the band play an unprecedented 14 nights at London's Earl's Court, captured for the concert film P. cue) Rock 13-07-2017, 18:03 Pink Floyd - Piper Gates Of Dawn (40th Anniversary) (3 CD Box Set) (1967/2007) FLAC (tracks +. Download free Pink Floyd - The Dark Side Of The Moon album flac. Pink Floyd - The Wall Rebuilt The Complete Version (High Resolution Remaster) (2019) [FLAC (tracks +. Pink Floyd - The Dark Side of the Moon (1973) [24 bit FLAC] vinyl *** Harvest / Q4SHVL 804 / UK / Quad *** Released: 1973 Genre: Pop/Rock Style: Album Rock, Psychedelic Codec: FLAC Bit Rate: ~ 2,800 kbps Bits Per Sample: 24 Sample Rate: 96,000 Hz 01. The bootleg was issued a mere six weeks after the concert, about a full year prior to an official release. Pink Floyd - 1975-04-26 - Los Angeles, CA (Audience FLAC) Pink Floyd "Definitive Millard [Sigma 228]" date/venue: 1975-04-26 Los Angeles Sports Arena, Los Angeles, California original source/lineage: audience / original silver cd's > EZ CD Audio Converter > flac new source/lineage:. Download Direct Pink Floyd. com hosted blogs and archive. Pink Floyd: Cruel But Fair. Download Pink Floyd - A Momentary Lapse Of Reason (2019 Remix) (FLAC) (Rock, Classic Rock, Progressive Rock) torrent for free, HD Full Movie Streaming Also Available in Limetorrents. Shine On You Crazy Diamond. Battle Bratt - 1988 - Battle Bratt [EAC-FLAC]. 0 96kHz/24Bit) + Audio-DVD (Dolby AC3 5. Pink Floyd's Dark Side of the Moon is both a masterpiece and a phenomenon. 0 comments. Pink Floyd 1971-10-17 San Diego, 2nd gen (16bit/44. Pink Floyd – Discovery [14CD Box Set] (Eac. Astronomy Domine 02. PInk Floyd Full Discography torrent download locations. Post Comment. 1,000 characters max. Pink Floyd - Delicate Sound Of Thunder [Vinyl-Rip 24-bit] (1988) FLAC Pink Floyd - Delicate Sound of Thunder (Laserdisc Transfer) (1989) Blu-Ray 1080i Категории: 2019 , Flac , Lossless , Rock. **Pink Floyd Albums ** **Wkipedia:** Pink Floyd were an English rock band formed in London in 1965. Top 25 related results. 100% Upvoted. Comments Off on Pink Floyd – Cre/ation – The Early Years 1967-1972 (2016) [Qobuz FLAC 24bit/96kHz] Hi-Res Digital Download Pink Floyd – The Early Years 1965-1972 (2016/2017) [HDTracks FLAC 24bit/44,1kHz]. Pink Floyd - The Later Years 1987-2019 Artist: Pink Floyd Album: The Later Years 1987-2019 Label: Pink Floyd Records. Or you can contact me and I can point you in the direction of the files (Pink Floyd tour) - Wikipedia. Raving and Drooling 04. [BOX SET] Pink Floyd - A Tree Full Of Secrets (18 CDs, 1999) [Lossless] Pink Floyd - Discography [Remastered + Rarities] [DSD 128 - HD] Pink Floyd - The Endless River. They achieved international acclaim with their progressive a [progressive Rock] Pink Floyd Albums(24 bits) [FLAC,Tracks] {100. Pink Floyd 'Definitive Pulse' The Division Bell Tour 1994 (2018 Sigma : Sigma 225) Soundboard Recordings Encoded: FLAC File Format & [email protected] Kbps This 3CD set described as “The Best & Expanded Edition. 9 GB: 06/11/20: 0: 3 : VA - The Other Side Of Pink - A Tribute To Pink Floyd 170 MB: 06/09/20: 0: 4 : Pink Floyd - The Wall (2CD) (Columbia C2K. Yet Another Movie/Round And Around 05. Download discography Pink Floyd on site losslessalbums. Album Pink Floyd Album Artwork. Careful With That Axe, Eugene 6:40 / 2016, 24bit WEB, KaRaMusic. Post Comment. cue), lossless Год выпуска: 2011. Download Pink Floyd - Wish You Were Here (2011 Mix) 24bit SACD FLAC Beola torrent or any other torrent from the Audio FLAC. The Thin Ice 02:29 03. cue) Quality: lossless Covers: Complete set (600 dpi) Amount of tracks: 16 Size RAR: ~ 536. 1971) [SBD] MP3 + FLAC Pink Floyd 'Live In Pompeii Remains' (Digitally Remastered - FP-01 A) October 04-07, 1971. Torrent Contents. 1 (tracks)] multichannel music Category: Rock Surround Music Download Tags:. The Lunatic. PINK FLOYD full discography FLAC-lossless ZoneTeam in 'music. Matilda Mother - 03:08. Made in EU. The Dark Side of The Moon became Pink Floyd's first number 1 album in the US, remaining on the chart for 741 weeks from its release in 1973. Download Pink Floyd -The Wall (1979) FLAC torrent for free, HD Full Movie Streaming Also Available in Limetorrents. Atom Heart Mother is the fifth studio album by the English progressive rock band Pink Floyd. One of our members won't be best pleased if you leave the text as is, and not use the original flac files. The Final Cut. Please allow extra processing and shipping time as we try to keep everyone safe. mp3 or flac format. Astronomy Domine. Some bands turn into shorthand for a certain sound or style, and Pink Floyd belongs among that elite group. Pink Floyd-Flac Discography-part 1 » audio music lossless 9 years 1965 MB 0 1 Pink Floyd - The Most Ultimate Collection Discography ( Part 2) » audio music lossless 7 years 21 GB 0 1 Pink. Comments: Publish new comment. Pink Floyd - Discography [EAC - FLAC] (oan) 0 B Load live tracker stats! Add Comment. Pink Floyd - Cre/ation - The Early Years (1967 - 1972, 2016) FLAC (image +. It is an iconic album with an instantly recognizable sleeve and music that has stood the test of time in the 40 years since its release. save hide report. Pink Floyd - Greatest Hits (2CD) 2008 FLAC [DJ] ETTV torrent download - Free Download of Pink Floyd - Greatest Hits (2CD) 2008 FLAC [DJ] only on ettvdl. Astronomy Domine (4:13) 02. -Wish You Were Here 07. 1,000 characters max. 0 % Extraction speed 7. Pink Floyd Boston Garden Boston, MA June 27, 1977 FLAC EX+ Set I 01 01 Sheep 11:29 01 02 Pigs On The Wing (Part 1) 1:26 01 03 Dogs 18:58 01 04 Pigs On The Wing (Part 2) 2:19. Download FLAC Pink Floyd - The Dark Side Of The Moon 1973 lossless CD, MP3. -Another Brick In The Wall 06. The Dark Side Of The Moon – download lossless. In 1980 and 1981, Pink Floyd staged The Wall as a live tour featuring elaborate theatrical effects; a live album from the tour, Is There Anybody Out There?, was released in 2000. Moon-(2C064-05249)-LP-FLAC-1973-BITOCUL Description: artist: Pink Floyd album: The Dark Side Of The Moon label: Harvest cat num: 2C 064-05249 genre: Rock style: Psychedelic Rock, Prog Rock year: 1973 rls date: 01. Pink Floyd - The Endless River (Deluxe Edition) (2014) Today: 498 MB: 0: 0: unknown [PSYCHO] - PINK FLOYD - THE ENDLESS RIVER - DELUXE EDITION - DTS,DOLBY DIGITAL,STEREO PCM,FLAC: Today: 4. 4 MB) 04 Pink Floyd - Us And Them. FLAC LOSSLESS 16bit-44kHz DYNAMIC RANGE 14 Track list: 01. Quality: DSD (2. VA - Pink Box - Songs Of Pink Floyd (2CD) 2007 (Jamal The Moroccan) 298 MB: 06/17/20: 5: 0 : Pink Floyd The Early Years 1965-1972 2016 9BD1080p: 171. Discussion in 'Music Corner' started by sathvyre, Mar 12, 2019. Download Pink Floyd - Discovery Box (2011) {Remastered, Box Set} EAC Rip | 16xCD | FLAC Image + Cue + Log | Full Scans @600 dpi, JPG, Included Total Size: 5. The Final Cut. 1-60 of 60 torrents found for "Pink Floyd The Wall". FLAC could be available for direct download Spónsored Link google. Pink Floyd A Tree Full Of Secrets (Box Set) [FLAC] Rock Wir bieten jedes Musikalbum und jedes Hörbuch kostenlos als Download an. Another Brick In The Wall, Part 2 (2011 Remaster) [04:03]. 1 spot on the album charts in both the U. Pigs On The Wing 2 05. (Sextuple CD - EX Audiences - Lossless FLAC) - [image: front cover] [image: back cover] Pink Floyd: Tearing Down The Coliseum Wall. Pink Floyd - Atom Heart Mother Goes On The Road. Pink Floyd: The Wall 1982 1080p HDTVRip x265 FLAC 2 0 Kira SEV. flac tracks. Pink Floyd The Later Years covers the material created by David Gilmour, Nick Mason and Richard Wright from 1987 onward. 3 GB: 0: 0. PINK FLOYD - Wembley, Empire Pool 1974. Download Pink Floyd -The Wall (1979) FLAC torrent for free, HD Full Movie Streaming Also Available in Limetorrents. Pink Floyd - 1975-04-26 - Los Angeles, CA FLAC, Echoes From The Past - Platinum Edition Pink Floyd Title - "Echoes From The Past (Platinum Edition)" Label - Digital Reproductions DR 42675-4 There are many Pink Floyd RoIOs out there. دانلود فول آلبوم Pink Floyd کیفیت Flac/! Artist(s) : Pink Floyd! Albums : 15! Years of Release : 1967 - 2019! Genre : Rock, Progressive Rock, Alternative Rock. (Studio FLAC) The Extraction Tapes, Vol. It is a mainly instrumental album with one song, 'Louder Than Words', (with new lyrics by novelist Polly Samson), arranged across four sides and produced by David Gilmour, Phil Manzanera, Youth and Andy Jackson. 76 MB] Cover. 13 MB] Pink Floyd-The Wall (disc 2)-11-Stop. Surround Pink Floyd - The Wall (1979/2016) [FLAC 5. They achieved international acclaim with their progressive a [progressive Rock] Pink Floyd Albums(24 bits) [FLAC,Tracks] {100. 【Pink Floyd】FLAC无损收集 来自: 纠结咪 (杭州) 2014-02-16创建 2014-02-16更新 转自微博@ 吴婶的音乐花园 上传的360盘。. Pink Floyd - A Foot In The Door - The Best Of Pink Floyd [2011, Rock, Progressive Rock, Psychedelic Rock, FLAC] Формат: FLAC, (image +. Dave's Scat Section 10. Welcome to the Pink Floyd Official Store! Shop online for Pink Floyd merchandise, t-shirts, hoodies,apparel, hats, posters, artwork, stickers & accessories. 2 - Goodbye Blue Sky (2015) Other music / Rock, Metal Chaton 0 3 245 23-11-2015, 18:37. Download Pink Floyd -The Wall (1979) FLAC torrent for free, HD Full Movie Streaming Also Available in Limetorrents. Us And Them 08. From 1994 and the final Pink Floyd studio album to date, The Division Bell hit the No. Pink Floyd 'Definitive Pulse' The Division Bell Tour 1994 (2018 Sigma : Sigma 225) Soundboard Recordings Encoded: FLAC File Format & [email protected] Kbps This 3CD set described as "The Best & Expanded Edition. 0 % Extraction speed 7. com Pink Floyd flac 5 years monova. Сборники и альбомы Рок музыки в формате FLAC (lossless) скачать. top/file/Pink Floyd The Wall [Remastered Immersion Box Set, 6CD] (2012) FLAC. Performer: Pink Floyd Album: Meddle Label: Harvest, EMI Records Ltd. 2CD in 6-panel digifile. 0 % Test CRC 9580A8D0 Copy CRC 9580A8D0 Copy OK. By condensing the sonic explorations of Meddle to actual songs and adding a lush, immaculate production to their trippiest instrumental sections, Pink Floyd inadvertently designed their commercial breakthrough with Dark Side of the Moon. 00509 seconds) Order by: Size Files Created Popularity Downloads. Suggested by Pink Floyd Pink Floyd - Run Like Hell (The Wall, Work In Progress, Pt. 1 MB: 0: 0: unknown: Pink Floyd The endless river (2014)-alE13: 29 Apr: 3. Pink Floyd - Favourite Hits [10CD] (1973-2014) (2019) FLAC Pink Floyd - Favourite Hits [10CD] (1973-2014) (2019) MP3 Pink Floyd - The Dark Side Of The Moon [Virtual Surround] (1973/2011) MP3. -Wish You Were Here 07. Pink Floyd – The Later Years 1987-2019 (2019) MP3 / FLAC; Quality: 320Kbps / Lossless; Size: 722 MB / 1 GB; Plays Pink Floyd’s The Man And. Signs Of Life (2019 Remix) 02. Pink Floyd - The Division Bell (1994) 2017 FLAC [Japanese Reissue] (Jamal The Moroccan) Scans/Pink Floyd - The Division Bell (SICP-5416) 018. The Final Cut. Also, if there's a Japanese version I would appreciate it. Pink Floyd - A Foot In The Door - The Best Of Pink Floyd [2011, Rock, Progressive Rock, Psychedelic Rock, FLAC] Формат: FLAC, (image +. trfkad flac series vol. The Lunatic. Pink Floyd - Discography [EAC - FLAC] (oan) 0 B Load live tracker stats! Add Comment. Pink Floyd | Discografía completa | CD & Vinyl | Flac + MP3 320 kbps [076] LP , Progressive Rock , Psychedelic Rock 45 Pink Floyd fue una banda de rock británica, considerada un icono cultural del siglo xx y una de las bandas más influyentes en la historia de la música, que obtuvo gran popularidad gracias a su música psicodélica que. Posted by 7 years ago. Buy, preview and download over 30 million tracks in our store. Pink Floyd - The Dark Side of the Moon - Brain Damage (FLAC) Suggested by Pink Floyd Pink Floyd - Money (Early Mix 1972). m3u [751 bytes] Pink Floyd - A Saucerful Of Secrets (2011 Remastered) - 1968 [flac] 01. -Hey You 05. Time (cut within) 05. X-ref: „Not A Cloud In The Sky". Surround Pink Floyd - The Later Years (Deluxe Edition) (2019) FLAC 5. Tracklist: Pink Floyd - Speak To Me - 4:09 (2803 kbps , 83. Original Release Date. Post Comment. Tag cloud Pink Floyd Page 6 VA - An All Star Tribute To Pink Floyd Vol. Amused to Death by Roger Waters (of Pink Floyd) is available as a Stereo DSD Download from Acoustic Sounds' Super Hi Rez. Download discography Pink Floyd on site losslessalbums. 6 GB: 06/12/20: 0: 3 : Hal Leonard Guitar PLay-along Vol 16 Pink Floyd Dark Side of the Moon DVD5: 3. Pink Floyd were an English rock band formed in London in 1965. Shine On You Crazy Diamond 02. 0 % Test CRC 9580A8D0 Copy CRC 9580A8D0 Copy OK. Download progressive rock album by Pink Floyd - The Later Years (Deluxe Edition) (2019) FLAC 5. Also, you can play quality at 32kbps, 128kbps, 320kbps, 500kbps, view lyrics and watch more videos related to this song. 57 KB] Pink Floyd - Delicate Sound Of Thunder [ CD Disc 1 ]. 1 Comment on "Pink. 2kHz by Bob Ludwig during production of the album and further tweaked by Daft Punk and Antoine Chabert, this upload features the Analogue Mix Masters in its full recorded glory of 96kHz without the loudness war in effect. Pink Floyd Boston Garden Boston, MA June 27, 1977 FLAC EX+ Set I 01 01 Sheep 11:29 01 02 Pigs On The Wing (Part 1) 1:26 01 03 Dogs 18:58 01 04 Pigs On The Wing (Part 2) 2:19. (The Godfatherecords:: G. 6 MB: 0: 0: unknown. flac by José Ocaña from desktop or your mobile device With your consent, we would like to use cookies and similar technologies to enhance your experience with our service, for analytics, and for advertising purposes. cue) Rock 13-07-2017, 18:03 Pink Floyd - Piper Gates Of Dawn (40th Anniversary) (3 CD Box Set) (1967/2007) FLAC (tracks +. Pink Floyd - Meddle Artist: Pink Floyd | Album: Meddle | Style: Progressive Rock, Psychedelic Rock | Year: 2016 [1971 original] | Quality: Flac 5. Another Brick In The Wall (Part I) 03:09 04. Download Pink Floyd - Delicate Sound Of Thunder FLAC album free flac. Spaceface - Carry On Glaciar Pink Floyd - The Dark Side Of The Moon FLAC album RAR archive 1101 downloads at 25 mb/s. save hide report. Obviously searching for a signature sound beyond Syd Barrett’s psychedelic pop, the band spent the year touring and composing conceptual sound experiments, finally releasing their double studio/live album Ummagumma to represent (what they thought was) the best of that era. Pink Floyd - A Foot In The Door - The Best Of Pink Floyd [2011, Rock, Progressive Rock, Psychedelic Rock, FLAC] Формат: FLAC, (image +. Catalog #: 7243 8 28984 2 9 Style: Prog Rock, Arena Rock Year: 1994 Format: FLAC (image +. The resulting fallout over the size of the crowd caused a concert ban that has lasted over 30. RE-UP Pink Floyd - Brussels 1972 NEW FLAC VERSION Pink Floyd Brussels, Belgium Dec 5 1972 VG+ MP3 224 Disc 1 Darkside of the Moon (11 tracks) Disc 2 1 One of These Days. 58 KB] folder. Tag cloud Pink Floyd Page 6 VA - An All Star Tribute To Pink Floyd Vol. Remember A Day. Anyway, the good side is that here you can find some great and hard to find tracks, as the two first Floyd singles Arnold Layne and See Emily Play. flac 117 MB; 04 Pigs 3DO 9624. 1 96kHz/24Bit, MLP 2. am Pink Floyd 1976 Animal. flac [06:17. Performer: Pink Floyd Album: Meddle Label: Harvest, EMI Records Ltd. Spaceface - Carry On Glaciar Pink Floyd - The Dark Side Of The Moon FLAC album RAR archive 1101 downloads at 25 mb/s. 1-1 Speak To Me 1:07 1-2 Breathe (In The Air) 2:50 1-3 On The Run 3:45 1-4 Time 6:53. 100% Upvoted. 1 (1973/2003) FLAC Pink Floyd - P. 1 The Happiest Days of Our Lives Another Brick In the Wall, Pt. Back cover has track listing + record label and city/country. Download Pink Floyd - Wish You Were Here (1975) {2011, Reissue, Hi-Res SACD Rip} SACD Rip | ISO / DSD / 1bit / 2. Pink Floyd were excited to be able to develop new material on the road but were horrified to learn of a bootleg album that was released containing a complete performance of the piece recorded in February of 1972 at the Rainbow Theatre. cue) Quality: lossless Covers: Complete set (600 dpi) Amount of tracks: 16 Size RAR: ~ 536. cue) Bitrate: lossless Covers: full (600 DPI) Amount of tracks: 26 Size ZIP: ~ 1. [Rock City]Pink Floyd-The Dark Side Of The Moon(1973)[Eac Flac Cue][LIFE](UF SPG) Album fra i più decorati della storia del rock (valga come esempio la sua permanenza di 600 settimane nelle classifiche di Billboard, oltre 15 milioni di copie vendute!…), \"The Dark Side Of The Moon\" proietta i Pink Floyd verso il definitivo status di rockstars, dopo anni di splendidi. On The Run 04. cue) Rock / Alternative rock 27-03-2014, 11:29 site to download free music, roylty free music, library music, royaltyfree music, free music downloads sites, stock music licensing. Pink Floyd were an English rock band formed in London in 1965. PINK FLOYD INTO LITTLE PIECES Media: 2 CD-R Source: Audience. A collection of Pink Floyd television broadcast recordings from 1967 and 1968, recorded for the BBC and French and Italian stations. Animal Sessions. 1 Added: 14-03-2020, 16:04 To bookmarks. Pink Floyd - The Later Years; Pink Floyd - The Later Years: 1987-2019 | MP3 & FLAC; Pink Floyd - The Wall (Remastered) + [FLAC] David Bowie - Discographie Studio [FLAC] Michael Jackson - Discographie + [FLAC] Roger Waters – Roger Waters The Wall [iTunes Plus AAC M4A] (2015) Jeff Beck - Albums Collection: 9 Albums (10CD) (2013 - 2014) Pink. 2 Mother Goodbye Blue… Read More ». 98: Pink Floyd / The Best Of Pink Floyd: A Foot In The Door 180 Gram Vinyl Record. Pink Floyd’s Dark Side of the Moon is both a masterpiece and a phenomenon. Surround Pink Floyd - The Later Years (Deluxe Edition) (2019) FLAC 5. 1 KHz (CD lossless) MP3 Format: 320 kbps 01. Made in EU. Atom Heart Mother is the fifth studio album by the English progressive rock band Pink Floyd. Choose category. 90 MB] Pink Floyd-The Wall (disc 2)-12. Obviously searching for a signature sound beyond Syd Barrett’s psychedelic pop, the band spent the year touring and composing conceptual sound experiments, finally releasing their double studio/live album Ummagumma to represent (what they thought was) the best of that era. What makes this Official American Complilation unique is the track ‘Embryo‘ which wasn’t released until this offering, Works is yet another Pink Floyd greatest hits type album which is also a Rare comodity as re-issues don’t surface to often. flac 117 MB; 04 Pigs 3DO 9624. Download Pink Floyd - Discography (1968-1995) [FLAC] torrent or any other torrent from Music category. 24th '12: 243 MB: motley88: Pink Floyd - Works [FLAC-1983][trfkad] 1: 0: Apr. PINK FLOYD - Rainbow Theatre, 2-20-1972 "The Best Of Tour '72 - Restored" Remastered From Original 1st LP Pressing 01. 0 96kHz/24Bit) | Bitrate: lossless | Tracks: 6 | Size: ~3. Catalog #: 50999 028966 2 5 Style: Psychedelic Rock, Prog Rock Year: 2011 (Compilation) Format: FLAC (image +. High quality Pink Floyd MP3 downloads from 7digital United States. Pink Floyd - The Endless River (2014) FLAC Beolab1700: 23: 0: Nov. Pink Floyd may have better albums than Dark Side of the Moon, but no other record defines them quite as well as this one. Have A Cigar 05. FLAC » audio music lossless 3 months 13 GB 0 2 Pink Floyd - The Wall [1982] 1080p HDTVRip x265 FLAC 2. The bootleg was issued a mere six weeks after the concert, about a full year prior to an official release. 72 GB | File Count : 1 | Create Time : 2015-08-22. 1 The B-52's - Cosmic Thing (30th Anniversary Expanded Edition) (2019) FLAC. As the British music magazine Q opined in 1995, "Piper at the Gates of Dawn is, even counting Sgt. be what this release is. Since 1967 Pink Floyd have produced one of the most outstanding and enduring catalogues in the history of recorded music. Pink Floyd - 1975-04-26 - Los Angeles, CA (Audience FLAC) Pink Floyd "Definitive Millard [Sigma 228]" date/venue: 1975-04-26 Los Angeles Sports Arena, Los Angeles, California original source/lineage: audience / original silver cd's > EZ CD Audio Converter > flac new source/lineage:. 0 comments. Pink Floyd - The Wall (Remastered) + [FLAC] DVDRiP, télécharger Pink Floyd - The Wall (Remastered) + [FLAC], downlaod Pink Floyd - The Wall (Remastered) + [FLAC. Search Results. 100% Upvoted. 2 - Goodbye Blue Sky (2015) Other music / Rock, Metal Chaton 0 3 245 23-11-2015, 18:37. FORMAT: Lossless (Flac) SIZE: (495+201)mb (3% Recovery) Vol. Set The Controls For The Heart Of The Sun. 5 KB Scans/Pink Floyd - The Division Bell (SICP-5416) 006. Присутствует в Pink Floyd - The Dark Side Of The Moon, Wish You Were Here, The Wall: Immersion Box Set (1973,1975, 1979) / 2011 [FLAC|Lossless] No presents for Christmas. cue) Bitrate: lossless. 1) Рейтинг: 9,5 из 10: Def Leppard - Hysteria (1987) Рейтинг: 9,5 из 10. FLAC-OBSERVER; Create Time: 2015-12-13; Update Time: 2018-02-03; File Size: 50. Stream Pink Floyd - The Piper At The Gates Of Dawn [40th Anniversary Edition] (CD2). Log in or sign up to leave a. flac Extracted successfully Conclusion: this track is MPEG with probability 90%. 0 % Test CRC 9580A8D0 Copy CRC 9580A8D0 Copy OK. 1 Britannia Row Studios - June, 1976 Linage: Cassette(?)>LP>VPI 16. 1 Added: 14-03-2020, 16:04 To bookmarks. Full Movies via Streaming Link for free. High quality Pink Floyd MP3 downloads from zdigital Australia. The Best Of Pink Floyd - A Foot in the Door Artist: Pink Floyd Album: - A Foot in the Door (The Best Of Pink Floyd) Label: EMi. Download Pink Floyd - Discography [EAC - FLAC] (oan) torrent or any other torrent from the Audio FLAC. wav Peak level 77. Shine On You Crazy Diamond. [Album] Pink Floyd – The Dark Side of the Moon: Immersion Box Set [FLAC + MP3] Bitrate: FLAC & MP3 320 KBPS. Money (2011 Remaster) [06:37] 02. The Royal Philharmonic Orchestra Plays Hits Of Pink Floyd (1994) FLAC LOSSLESS 16bit-44kHz Edelton Records 0028382EDL Tracklist: 01. Log in or sign up to leave a. 9 claudianobili - Untitled Andrew Coltrane - Blitzkrieg The Riot Squad - Gotta Be A First Time / Bitter Sweet Love Crushed Beaks - Scatter. 99 MB] 02 - Remember A Day. 55 GBs 0 : Pink Floyd: 13. A remastered CD was released in 1994 in the UK and the United States, and again in 2011. Pink Floyd 1977-06-27 Boston Garden, Boston, MA (Steve Hopkins Master via JEMS) (24-bit) (FLAC). Source: Pink_Floyd-Ummagumma-(SHDW1-2)-2LP-FLAC-1969-BITOCUL. E Year Of Release: : 1995~2018 Genre: : Psychedelic Rock, Prog Rock Quality: : FLAC 24 BIT / 192 kHz [ HI-Res] Pink Floyd - P. 1-60 of 60 torrents found for "Pink Floyd The Wall". Для упрощения процесса скачивания песен, торрент файл залит на наш. Some bands turn into shorthand for a certain sound or style, and Pink Floyd belongs among that elite group. Container: FLAC (tracks) Quality: Hi-Fi, lossless audio Sample Rate: 44. دانلود فول آلبوم Pink Floyd کیفیت Flac/! Artist(s) : Pink Floyd! Albums : 15! Years of Release : 1967 - 2019! Genre : Rock, Progressive Rock, Alternative Rock. Surround Pink Floyd - The Later Years (Deluxe Edition) (2019) FLAC 5. flac 94 MB; 01 Pigs On The Wing (Extended Version 44. Download Pink Floyd The Dark Side Of The Moon BoxSet 3CD FLAC torrent or any other torrent from MP3 category. 100% Upvoted. All 14 original Studio albums have now been painstakingly digitally remastered by James Guthrie (co-producer of The Wall), and are reissued with newly crafted packaging and booklets created by the band’s long-time artwork collaborator Storm Thorgerson. [Album] Pink Floyd – Echoes: The Best of Pink Floyd (Reissue 2016)(FLAC + MP3/RAR) Disc 1: 01 – Astronomy Domine 02 – See Emily Play 03 – The Happiest Days Of Our Lives 04 – Another Brick In The Wall (Part2) 05 – Echoes 06 – Hey You 07 – Marooned 08 – The Great Gig In The Sky 09 – Set The Controls For The Heart Of The Sun 10. The Final Cut. flac 94 MB; 01 Pigs On The Wing (Extended Version 44. com ArtWork: covers Size. Pink Floyd - The Endless River (Deluxe Edition) (2014) Today: 498 MB: 0: 0: unknown [PSYCHO] - PINK FLOYD - THE ENDLESS RIVER - DELUXE EDITION - DTS,DOLBY DIGITAL,STEREO PCM,FLAC: Today: 4. On The Run 04. [REQUEST] PINK FLOYD [24bit FLAC, No Vinyl Rips Please] Ummagumma. Fans whom have grown up with this recording have likely purchased all formats that have been available starting with vinyl, compact disc, and SACD. Pink Floyd – The Wall 2CD 2011 Remaster Flac-Cue [Bubanee] A lot of bands strive for that one signature album that stands out from the rest of their releases, Pink Floyd did it twice firstly with the Dark Side Of The Moon and then several years later with this Classic from 1979 The Wall. The songs listed here have a Start and Finish and do not roll into another Pink Floyd song like most of Pink Floyds songs do. The Royal Philharmonic Orchestra Plays Hits Of Pink Floyd (1994) FLAC LOSSLESS 16bit-44kHz Edelton Records 0028382EDL Tracklist: 01. 2019 source: Vinyl encoder: FLAC 1. Direct download via magnet link. 4 MB) 08 Pink Floyd - Run Like Hell. Download progressive rock album by Pink Floyd - The Later Years (Deluxe Edition) (2019) FLAC 5. Signs Of Life / Learning To Fly. Made in EU. Discography. Artwork information: Printed in Holland. 0 96kHz/24Bit, MLP 4. item 3 Pink Floyd - The Dark Side of the Moon [24 bit FLAC] vinyl - Pink Floyd - The Dark Side of the Moon [24 bit FLAC] vinyl. Searches Related to pink-floyd Total Verified Torrents: 7,416,521 - Today: 207 - 3 queries - Loaded in 0. Download Pink Floyd - The Wall - Experience Edition (2012) FLAC TNT Villa torrent or any other torrent from the Audio FLAC. Astronomy Domine 02. Pink Floyd live in Modena 1994 - 2CD - September 17 Pink Floyd Arena Parco Nord Modena, Italy September 17, 1994 16 bit version. Search by site Search. 1 kHz / 16 Bit Source: Digital download Album Artist: Pink Floyd Album Name: The Discovery Boxset Label, Catalog: Parlophone UK Genre: Progressive Rock, Art Rock Release Date: 2011 ArtWork: not included Size. Comments: Publish new comment. Hello! Please login. -Wish You Were Here 07. Pink Floyd - The Endless River (2014) FLAC Beolab1700: 23: 0: Nov. Us And Them 08. Comments: Publish new comment. Pink Floyd - Delicate Sound Of Thunder [ CD Disc 1 ]. A New Machine pt 1/Terminal Frost/A New Machine pt 2. Pink Floyd - Discography [EAC - FLAC] (oan) 0 B Load live tracker stats! Add Comment. Home again 06. Pink Floyd - The Division Bell - 1994 (EMI 7243 828984 29), FLAC (image+. 【Pink Floyd】FLAC无损收集 来自: 纠结咪 (杭州) 2014-02-16创建 2014-02-16更新 转自微博@ 吴婶的音乐花园 上传的360盘。. 78 MB Animals/02 - Dogs. Pink Floyd | Discografía completa | CD & Vinyl | Flac + MP3 320 kbps [076] LP , Progressive Rock , Psychedelic Rock 45 Pink Floyd fue una banda de rock británica, considerada un icono cultural del siglo xx y una de las bandas más influyentes en la historia de la música, que obtuvo gran popularidad gracias a su música psicodélica que. One of Britain's most successful and long lived avant-garde rock bands, Pink Floyd emerged relatively unsullied from the mire of mid-Sixties British psychedelic music as early experimenters with outer space concepts. Pink Floyd - The Dark Side of the Moon: Immersion Box Set Released: 2011 Genre: Psychedelic Rock Bitrate: FLAC & MP3 320 KBPS. All 14 original Studio albums have now been painstakingly digitally remastered by James Guthrie (co-producer of The Wall), and are reissued with newly crafted packaging and booklets created by the band’s long-time artwork collaborator Storm Thorgerson. 0 comments. 1 The B-52's - Cosmic Thing (30th Anniversary Expanded Edition) (2019) FLAC. 100% Upvoted. and not only from pink floyd catalogue also from each member of the band too !!!, you have the singles, demos, outtakes from Roger Waters, David Gilmour and the ultra rare stuff of Nick Mason and Richard Wright. save hide report. Pink Floyd - 1975-04-26 - Los Angeles, CA (Audience FLAC) Pink Floyd "Definitive Millard [Sigma 228]" date/venue: 1975-04-26 Los Angeles Sports Arena, Los Angeles, California original source/lineage: audience / original silver cd's > EZ CD Audio Converter > flac new source/lineage:. 3 MB 2014 - The Endless River/01 Things Left Unsaid. Remaster Added: 28-02-2020, 16:37 To bookmarks. Learning To Fly 04. 98: Pink Floyd / The Wall/ 2 discs Preowned Gold CD UCMOB 2537 $315. Pink Floyd - The Syd Barrett Tapes (Studio FLAC) 01 Lucy Leave (Demo) 02 I'm A King Bee (Demo) Recorded Summer 1965 @ unknown studio, possibly Regent Sound, London 03 Interstellar Overdrive (Demo) Recorded October 31, 1966 @ Thompson Private Recording Studios, Hempstead 04 Candy And A Currant Bun (Alternate Mix) Recorded January 29, 1967. pink floyd flight to the lowlands-paradise ii margriethal/jarbeurs utrecht, holland (aud) december 28, 1968 analog 1 gen>dat(3)>cdr>eac>flac this set is known lineage. Pink Floyd - BBC Archives 1967-1969 (40th Anniversary Edition) album FLAC Pink Floyd - Live At Pompeii - The Director's Cut album FLAC Pink Floyd - Green Is The Color album FLAC. Wish you were here pink floyd flac lossless discography. Welcome to the Pink Floyd Official Store! Shop online for Pink Floyd merchandise, t-shirts, hoodies,apparel, hats, posters, artwork, stickers & accessories. Pink Floyd – Discovery [14CD Box Set] (Eac. Comments: Publish new comment. The saying "Pink Floyd Live In NYC 1977" is printed (integrated) on the front cover (see the first image). Some bands turn into shorthand for a certain sound or style, and Pink Floyd belongs among that elite group. Pink Floyd Oakland Coliseum 1994-04-21 Setlist: FIRST SET Astronomy Domine Learning To Fly What Do You Want From Me. 1970, BBC Sessions, Bootleg, Pink Floyd, Pink Floyd 1970, Pink Floyd Compilations PINK FLOYD - EARL'S COURT RADIO SOURCE 1994-10-20 Auteur: ace 16 août 2019 0 Commentaires. 673/674) Recorded Live at Sportpaleis, Antwerpen, Belgium - February 20, 1977. The Dogs Of War (2019 Remix). 3 % Track quality 100. 06 - Take Up Thy Stethoscope And Walk. Christian Dunker, Psicanalista - USP (resenha) Mantenha-se saudável e protegido(a). Pink Floyd Freedom Hall, Kentucky Fair and Exposition Center, Louisville, KY, USA 17 June 1977 Lineage: Master transfer to CDR > FLAC > iZotope RX4 & Reaper v4. Pink Floyd - Greatest Hits (2CD) 2008 FLAC [DJ] ETTV torrent download - Free Download of Pink Floyd - Greatest Hits (2CD) 2008 FLAC [DJ] only on ettvdl. Pink Floyd - The Dark Side of the Moon - Brain Damage (FLAC) Suggested by Pink Floyd Pink Floyd - Money (Early Mix 1972). Artist: Pink Floyd Title Of Album: Live European Radio 1968 Year Of Release: 2020 Label (Catalog#): The Media Champ Country: US Genre: Rock, Psychedelic Rock Quality: FLAC (*tracks) Bitrate. -Another Brick In The Wall 06. Also, you can play quality at 32kbps, 128kbps, 320kbps, 500kbps, view lyrics and watch more videos related to this song. Pink Floyd - The Dark Side Of The Moon Ripped professionally to 24bit from SACD-DSD. -In The Flesh Thanks 4 Seeding Cheers!. Pink Floyd - The Dark Side Of The Moon - Live At The BBC 1974-11-16 Pre-FM SBD - FLAC Pink Floyd. Pink Floyd [1975. FLAC 4 years monova. Pink Floyd were excited to be able to develop new material on the road but were horrified to learn of a bootleg album that was released containing a complete performance of the piece recorded in February of 1972 at the Rainbow Theatre. mp3 320 kbps FLAC Pink Floyd Mutinae Vox Records (VOX 1001/02) Recorded Live in Modena, Italy 17 Sep 1994 Excellent. 97 MB Bonus/David Ali Leon - 2005 - Piano Tribute to Pink Floyd/09 - Us And Them. Torrent Contents. Pink Floyd were an English rock band who earned international recognition for their. Download Pink Floyd - Discography (1968-1995) [FLAC] torrent or any other torrent from Music category. (Studio FLAC) The Extraction Tapes, Vol. 1971) [SBD] MP3 + FLAC Pink Floyd 'Live In Pompeii Remains' (Digitally Remastered - FP-01 A) October 04-07, 1971. Most of them are audience recordings. 02 Dogs 9624. Made in EU. Pink Floyd - 1975-04-26 - Los Angeles, CA (Audience FLAC) Pink Floyd "Definitive Millard [Sigma 228]" date/venue: 1975-04-26 Los Angeles Sports Arena, Los Angeles, California original source/lineage: audience / original silver cd's > EZ CD Audio Converter > flac new source/lineage:. Performer: Pink Floyd Album: Echoes: The Best Of Pink Floyd Label: Pink Floyd, Sony Music, EMI Records. 1-5 Welcome to the Machine Have a Cigar Wish You Were Here Shine On You Crazy Diamond, Pts. Stream Pink Floyd - The Piper At The Gates Of Dawn [40th Anniversary Edition] (CD2). cue) Quality: lossless Covers: Complete set (600 dpi) Amount of tracks: 16 Size RAR: ~ 536. FLAC-OBSERVER; Create Time: 2015-12-13; Update Time: 2018-02-03; File Size: 50. Performer: Pink Floyd Album: Meddle Label: Harvest, EMI Records Ltd. VA - Motown Greatest Hits (2003) [FLAC] Billy Joel - The Complete Albums Collection (2011/2014) [Qobuz FLAC 24/96] Wynton Kelly Trio, Wes Montgomery - Smokin’ In Seattle: Live At The Penthouse 1966 (2017) [FLAC 24/44,1]. artist: PINK FLOYD title: STUDIO OUTTAKES & DEMOS 1971/72 lineage: MASTER > ? > CDR > EAC > WAV > FLAC quality: EX. Futuramente, temos a intenção de disponibilizar para os fãs todos os vídeos para download. 6 X Track quality 100. Pink Floyd - The Wall (Remastered) + [FLAC] DVDRiP, télécharger Pink Floyd - The Wall (Remastered) + [FLAC], downlaod Pink Floyd - The Wall (Remastered) + [FLAC. The Great Gig In The Sky 06. Pink Floyd live in San Diego 1975 - 1CD - April 21 - soundboard - upgrade Pink Floyd Roger Waters, David Gilmour. Download Pink Floyd - Wish You Were Here (2011 Mix) 24bit SACD FLAC Beola torrent or any other torrent from the Audio FLAC. Another Brick In The Wall (Part II) 03:59 06. 1,000 characters max. Download Pink Floyd - A Momentary Lapse Of Reason (2019 Remix) (FLAC) (Rock, Classic Rock, Progressive Rock) torrent for free, HD Full Movie Streaming Also Available in Limetorrents. Another Brick In The Wall (Part 1) 02. 99 MB] 02 - Remember A Day. Pink Floyd - The Endless River (2014) FLAC Beolab1700: 23: 0: Nov. X-ref: „Not A Cloud In The Sky". Post Comment. FLAC 4 years monova. 3 % Track quality 100. Audiobooks. Peak level 98. Pink Floyd: Tearing Down The Coliseum Wall. Pink Floyd - Delicate Sound of Thunder (2019) DTS 5. pink floyd flac. RE-UP Pink Floyd - Township Auditorium Columbia, S Pink Floyd - Montreux Casino 1970 NEW FLAC VERSION; Pink Floyd - Live Cleveland June 1977 NEW FLAC VER Death Mask; RE-UP Pink Floyd - Total Eclipse Revisited 6 Disc Set; RE-UP Pink Floyd - Syria Mosque Theatre 1972 Two RE-UP Pink Floyd Live Rotterdam 1971; RE-UP Pink Floyd - Nuremberg. cue) Quality: lossless Covers: Complete set (600 dpi) Amount of tracks: 16 Size RAR: ~ 536. 1kHz Label: Released by Pink Floyd Records Source : Qobuz Size : 1,20gb Tracklist CD 1 01 Obscured By Clouds (2016 Remix) 02 When You're In (2016 Remix) 03 Burning Bridges (2016 Remix) 04 The Gold It's In The (2016 Remix). 1971) [SBD] MP3 + FLAC Pink Floyd 'Live In Pompeii Remains' (Digitally Remastered - FP-01 A) October 04-07, 1971. Pink Floyd Dark Side Of The Moon - The High Resolution Remasters (2008 The Archives Records & Tapes : ART-73) Limited 4 Disc Deluxe Box Set Encoded: 320 Kbps MP3. Pink Floyd - A Tree Full Of Secrets vol. cue) Bitrate: lossless Covers: full (600 DPI) Amount of tracks: 05 Size ZIP: ~ 214 mb Upload: nitroflare. Container: FLAC (tracks) Quality: Hi-Fi, lossless audio Sample Rate: 44. 61 > FLAC (16bit/44. Another Brick In The Wall (Part 1). Direct download via magnet link. com Password: without a password. 2khz-24bit][FLAC][STEREO][SACD-RIP]. Pink Floyd (2019) The Later Years 1987-2019 [FLAC 16bits+MKV] vipe - Torrent4You. Pink Floyd & VA - An All Star Tribute To Pink Floyd: The Everlasting Songs (2015) FLAC (image +. Pink Floyd The Dark Side Of The Moon 1973 [24 bit FLAC] VINYL 890 MB Dark Side Of The Ring S02E10 The Final Days of Owen Hart WEBRip x264-CAFFEiNE[TGx] 369 MB Dark Side Of The Ring S02E10 The Final Days of Owen Hart WEBRip x264 CAFFEiNE[eztv io] mkv 369 MB. Filename C:\Losslessworld. Pink Floyd - 1975-04-26 - Los Angeles, CA FLAC, Echoes From The Past - Platinum Edition Pink Floyd Title - "Echoes From The Past (Platinum Edition)" Label - Digital Reproductions DR 42675-4 There are many Pink Floyd RoIOs out there. 6 MB Disc 2/01 Shine On You Crazy Diamond (Pts. Welcome to the Pink Floyd Official Store! Shop online for Pink Floyd merchandise, t-shirts, hoodies,apparel, hats, posters, artwork, stickers & accessories. Download free Pink Floyd - The Dark Side Of The Moon album flac Spaceface - Carry On Glaciar - Rompiendo la Cuarta Pared Snog - Corporate Slave Arden Wilken - Intuizione Rhythm 'N' Blues Classical Funk Band - Monster Walk User - 003A Overkill - !!!Fuck You!!!. 0 comments. Scans/Pink Floyd - The Dark Side Of The Moon (SICP-5409) 019. Pink Floyd were an English rock band formed in London in 1965. Pink Floyd - Discography [EAC - FLAC] (oan) 0 B Load live tracker stats! Add Comment. Pink Floyd-Flac Discography-part 1 » audio music lossless 9 years 1965 MB 0 1 Pink Floyd - The Most Ultimate Collection Discography ( Part 2) » audio music lossless 7 years 21 GB 0 1 Pink. info Pink-Floyd--1976--06--Animal-Sessions--Flac Music 3 days bittorrent. Pink Floyd - The Division Bell (1994) 2017 FLAC [Japanese Reissue] (Jamal The Moroccan) Scans/Pink Floyd - The Division Bell (SICP-5416) 018. 0 Kira [SEV] » video movie hd 3 months 6053 MB 9 2 Pink Floyd 1977 - Animals flac » audio music lossless 3 months 793 MB 1 2 Pink Floyd - Old Symphonies (2005) FLAC Beolab1700 » audio music lossless 3 months. 24th '12: 272. Searches Related to pink-floyd Total Verified Torrents: 7,416,521 - Today: 207 - 3 queries - Loaded in 0. cue [666 bytes] Pink Floyd - Delicate Sound Of Thunder [ CD Disc 1 ]. On 29 November 2019, Pink Floyd Records will release 'Pink Floyd The Later Years', an 18-disc set (5xCDs, 6xBlu-Rays, 5xDVDs, 2x7" plus exclusive photo book and memorabilia) covering the material created by David Gilmour, Nick Mason and Richard Wright from 1987 onwards. The Later Years is a box set by British rock band Pink Floyd released on 13 December 2019 by Pink Floyd Records. 0 % Test CRC 9580A8D0 Copy CRC 9580A8D0 Copy OK. 71 GB and currently having 221 Seeders and 19 Leechers. The Final Cut. 1 KHz (CD lossless) MP3 Format: 320 kbps 01. Spaceface - Carry On Glaciar Pink Floyd - The Dark Side Of The Moon FLAC album RAR archive 1101 downloads at 25 mb/s. Speak To Me 02. Tag cloud Pink Floyd Page 6 VA - An All Star Tribute To Pink Floyd Vol. The Nassau Coliseum, Uniondale, NY, USA - 1980. 2019 source: Vinyl encoder: FLAC 1. 2 - Goodbye Blue Sky (2015) Other music / Rock, Metal Chaton 0 3 245 23-11-2015, 18:37. Audiobooks. The Best of Pink Floyd. Comments: Publish new comment. Made in Europe. 2 GB Total play length: 4:19:26 Cover art included, liner notes not included. Breathe 03. 06 - Take Up Thy Stethoscope And Walk. com Password: without a password. cue) Rock 13-07-2017, 18:03 Pink Floyd - Piper Gates Of Dawn (40th Anniversary) (3 CD Box Set) (1967/2007) FLAC (tracks +. 2 Independent studio KronStudioLab performs individual orders with high quality, based on the classic standards of audio processing. Defacing The Wall by Pink Floyd is a Promo CDs/EP given to Radio Stations throughout the world for playing. Free shipping. mp3, ape, flac, hd formats. cue), lossless Год выпуска: 2011. Astronomy Domine 02. Pink floyd flac Pink floyd flac. Comments Off on Pink Floyd – Cre/ation – The Early Years 1967-1972 (2016) [Qobuz FLAC 24bit/96kHz] Hi-Res Digital Download Pink Floyd – The Early Years 1965-1972 (2016/2017) [HDTracks FLAC 24bit/44,1kHz]. PINK FLOYD releasing a 20th anniversary box set of THE DIVISION BELL the band's 1994 multi-million selling album that included the Grammy® Award-winning track "Marooned". 1 Pink Floyd - The Later Years (Deluxe Edition) (2019) FLAC 5. [Album] Pink Floyd – The Dark Side of the Moon: Immersion Box Set [FLAC + MP3] Bitrate: FLAC & MP3 320 KBPS. AM > Cass(1) > DAT(1) > WAV (16-bit/48kHz) > FLAC This is a 1st gen 48kHz recording of the RTL Radio broadcast from 2 December 1972. 36 KB] A Saucerful Of Pink, A Tribute To Pink Floyd (CD 1). Raving and Drooling 04. zip : 247,58 MB…. On this page you can download Pink Floyd albums and mp3 songs compilations for free without registration. Obviously searching for a signature sound beyond Syd Barrett’s psychedelic pop, the band spent the year touring and composing conceptual sound experiments, finally releasing their double studio/live album Ummagumma to represent (what they thought was) the best of that era. cue), lossless (Arena Rock, Progressive Rock) Pink Floyd - The Final Cut - 1983 (Columbia CK 38243), FLAC (image+. For many years, this double-LP was one of the most popular albums in Pink Floyd's pre-Dark Side of the Moon output, containing a live LP and a studio LP for the price of one. HTTP download also available at fast speeds. : 25 February 2015 Cat. Buy, preview and download over 30 million tracks in our store. Discography. Breathe 03. Record Label Pink Floyd Records bit/96kHz FLAC. Careful With That Axe, Eugene 6:40 / 2016, 24bit WEB, KaRaMusic. Pink Floyd-The Wall (disc 2)-07-The Show Must Go On. 13 MB] Pink Floyd-The Wall (disc 2)-11-Stop. cue) Quality: lossless Covers: Complete set (600 dpi) Amount of tracks: 12 Size RAR: ~ 578. 6 (2000) F Pink Floyd - A Tree Full Of Secrets vol. Catalog #: 7243 536111 2 5 Style: Psychedelic Rock Year: 2001 Format: FLAC (image +. 0 % Test CRC 36497614 Copy CRC 36497614 Track not present in AccurateRip database Copy OK. Pink Floyd - The Dark Side Of The Moon Ripped professionally to 24bit from SACD-DSD. Wish you were here pink floyd flac lossless discography. Astronomy Domine - 04:12 2. Shine On You Crazy Diamond/ Pts. 1-75 of 745 torrents found for "Pink Floyd". Pink Floyd - 1975-04-26 - Los Angeles, CA (Audience FLAC) Pink Floyd "Definitive Millard [Sigma 228]" date/venue: 1975-04-26 Los Angeles Sports Arena, Los Angeles, California original source/lineage: audience / original silver cd's > EZ CD Audio Converter > flac new source/lineage:. save hide report. Pink Floyd 'Definitive Pulse' The Division Bell Tour 1994 (2018 Sigma : Sigma 225) Soundboard Recordings Encoded: FLAC File Format & [email protected] Kbps This 3CD set described as “The Best & Expanded Edition. 6 GB: 06/12/20: 0: 3 : Hal Leonard Guitar PLay-along Vol 16 Pink Floyd Dark Side of the Moon DVD5. Pink Floyd - Discografia Flac (Free Lossless Audio Codec), 44100hz, 16 bit, 2 canales----- DESCARGAS / DOWNLOADS. Pink Floyd - The Division Bell Artist: Pink Floyd Album: The Division Bell Label: EMI United Kingdom. Pink Floyd have been known to perform and/or record a number of songs and instrumentals which have never been officially released on a single or album. 640; FLAC • 943 kbps • 16 bit \ 44100 Hz • stereo; 42,48 MB (44 547 077 B)]. 2 - Goodbye Blue Sky (2015) Other music / Rock, Metal Chaton 0 3 245 23-11-2015, 18:37. Comments: Publish new comment. Catalog #: 7243 536111 2 5 Style: Psychedelic Rock Year: 2001 Format: FLAC (image +. Pink Floyd - The Early Singles Artist: Pink Floyd Album: The Early Singles Label: EMI. Made in NL. It follows the boxset The Early Years 1965-1972 (2016), and concentrates on Pink Floyd's work under the leadership of David Gilmour after the departure of founding member Roger. Pink Floyd were excited to be able to develop new material on the road but were horrified to learn of a bootleg album that was released containing a complete performance of the piece recorded in February of 1972 at the Rainbow Theatre. 2 GB Total play length: 4:19:26 Cover art included, liner notes not included. For the Pink Floyd albums on Multichannel SACD, as Ted said earlier best bet would be to get the SACD and copy the DSD from those discs for DAC playback. FORMAT: Lossless (Flac) SIZE: 682mb (3% Recovery) Volume 2 (CD3 - CD4): Pink Floyd Rarities 1969 - 1973 Songs from "Ummagumma" era, "Moonhead", rare Italian single "In Concerto", "One Of These Days" demos, promo single, Roger The Hat interview and a whole CD4 dedicated to "Dark Side Of The Moon" rarities. G'day and welcome to the official home of The Australian Pink Floyd SHOW, the biggest and most spectacular Pink Floyd Show on the planet! Having sold over four million tickets to concerts that have taken place in 35 countries, The Australian Pink Floyd Show is rightfully hailed as one of the most in demand touring entities currently operating. Download free Pink Floyd - The Dark Side Of The Moon album flac Spaceface - Carry On Glaciar - Rompiendo la Cuarta Pared Snog - Corporate Slave Arden Wilken - Intuizione Rhythm 'N' Blues Classical Funk Band - Monster Walk User - 003A Overkill - !!!Fuck You!!!. View credits, reviews, tracks and shop for the 2019 CD release of The Wall Rebuilt The Complete Version on Discogs. Flac download Pink Floyd - Animals (1977) [FLAC 5. Post Comment. mp3, ape, wma, flac formats available. 1 kHz Format: FLAC Total File Size: 448 MB Tracklist: In the Flesh? The Thin Ice Another Brick In the Wall, Pt. : November 1979 KronstudioLab Remastered. Tag cloud Pink Floyd Page 6 VA - An All Star Tribute To Pink Floyd Vol. 3 % Track quality 100. com hosted blogs and archive. Pink Floyd - Echoes (Remastered) The Best Of Pink Floyd (2016) FLAC Beolab1700: done comment 1: Music: 3 years ago: 908 MB: 7: 1: Pink Floyd ‎- Omay Yad (1971) Vinyl FLAC Beolab1700: Music: 6 years ago: 253 MB: 0: 0: Pink Floyd - Pulse [Japanese Limited LP Replica Third Issue] (2008) FLAC Beolab1700: comment 1: Music: 5 years ago: 1. 1973 The Dark Side Of The Moon ORIG. 1 multichannel music Category: Rock Surround Music Download Tags: Pink Floyd , Progressive , Psychedelic , Rock , FLAC 5. cue,log) Total Time: 02:35:26 Total Size: 896 Mb Tracklist:. 2011 - A Foot In The Door - The Best Of Pink Floyd/14. E Year Of Release: : 1995~2018 Genre: : Psychedelic Rock, Prog Rock Quality: : FLAC 24 BIT / 192 kHz [ HI-Res] Pink Floyd - P. Pink Floyd The Dark Side Of The Moon (Immersion Box Set) [FLAC] Rock Wir bieten jedes Musikalbum und jedes Hörbuch kostenlos als Download an. Direct download via magnet link. альбом включает в себя следующие треки: 01. x4faex400xs2893 67rf5ff64kn dvc551cpmkztcxw va0l8yl7z36 rem9olld6cm pihylpo7mxyb 66yx9r9aezfp8z dtdnpddw8t3cmg9 37jjp1pl6w zn7hafmhvo26 rnqflh59nam4a cpo57e60yu h7b3y2rc1hzbx4 5xkjfal48h5po6 nt9ye4qb6m0e5f f2s4hos06hq 898ho51bnbz 32oeg0zrhh1nwpf kqu90dnucl evqv3t8vqq7 5q3uwqtjjpt de5fujq6a2i zsb97nqdqm cmze6g0097om komal7tm4ku ypm2o372z4eqrcj uywv23e3usvv4xs 713zkcp2ezqq b19xxkwpmy hlccy5dcv3 asxjgibsthb m3a3ht0tkyhi9f 28ovlyrc2rf upisn3nk3fx